Need help with your PC or Modding Projects?
r2daizzzo
Newbie
 
Posts: 6
Joined: Wed Jun 28, 2006 10:32 pm

die hard arcade

by r2daizzzo Sat Jul 01, 2006 5:54 pm

i downlod this game and every time i try to load the cue sheet with my nero it says cant open cue sheet. error in line one whats does that mean. i open cue sheet wit note pad and this is what i got someone ples help....

FILE DIEHARD.ISO BINARY
TRACK 01 MODE1/2048
INDEX 01 00:00:00
POSTGAP 00:02:00

FILE 02.WAV WAVE
TRACK 02 AUDIO
PREGAP 00:02:00
INDEX 01 00:00:00

FILE 03.WAV WAVE
TRACK 03 AUDIO
INDEX 01 00:00:00

FILE 04.WAV WAVE
TRACK 04 AUDIO
INDEX 01 00:00:00

FILE 05.WAV WAVE
TRACK 05 AUDIO
INDEX 01 00:00:00

FILE 06.WAV WAVE
TRACK 06 AUDIO
INDEX 01 00:00:00

FILE 07.WAV WAVE
TRACK 07 AUDIO
INDEX 01 00:00:00

FILE 08.WAV WAVE
TRACK 08 AUDIO
INDEX 01 00:00:00

FILE 09.WAV WAVE
TRACK 09 AUDIO
INDEX 01 00:00:00

FILE 10.WAV WAVE
TRACK 10 AUDIO
INDEX 01 00:00:00

FILE 11.WAV WAVE
TRACK 11 AUDIO
INDEX 01 00:00:00

FILE 12.WAV WAVE
TRACK 12 AUDIO
INDEX 01 00:00:00

FILE 13.WAV WAVE
TRACK 13 AUDIO
INDEX 01 00:00:00

FILE 14.WAV WAVE
TRACK 14 AUDIO
INDEX 01 00:00:00

FILE 15.WAV WAVE
TRACK 15 AUDIO
INDEX 01 00:00:00

FILE 16.WAV WAVE
TRACK 16 AUDIO
INDEX 01 00:00:00

FILE 17.WAV WAVE
TRACK 17 AUDIO
INDEX 01 00:00:00

FILE 18.WAV WAVE
TRACK 18 AUDIO
INDEX 01 00:00:00

FILE 19.WAV WAVE
TRACK 19 AUDIO
INDEX 01 00:00:00

FILE 20.WAV WAVE
TRACK 20 AUDIO
INDEX 01 00:00:00

FILE 21.WAV WAVE
TRACK 21 AUDIO
INDEX 01 00:00:00

FILE 22.WAV WAVE
TRACK 22 AUDIO
INDEX 01 00:00:00

FILE 23.WAV WAVE
TRACK 23 AUDIO
INDEX 01 00:00:00

FILE 24.WAV WAVE
TRACK 24 AUDIO
INDEX 01 00:00:00

FILE 25.WAV WAVE
TRACK 25 AUDIO
INDEX 01 00:00:00

FILE 26.WAV WAVE
TRACK 26 AUDIO
INDEX 01 00:00:00

FILE 27.WAV WAVE
TRACK 27 AUDIO
INDEX 01 00:00:00

FILE 28.WAV WAVE
TRACK 28 AUDIO
INDEX 01 00:00:00

FILE 29.WAV WAVE
TRACK 29 AUDIO
INDEX 01 00:00:00

FILE 30.WAV WAVE
TRACK 30 AUDIO
INDEX 01 00:00:00

FILE 31.WAV WAVE
TRACK 31 AUDIO
INDEX 01 00:00:00

FILE 32.WAV WAVE
TRACK 32 AUDIO
INDEX 01 00:00:00

FILE 33.WAV WAVE
TRACK 33 AUDIO
INDEX 01 00:00:00

FILE 34.WAV WAVE
TRACK 34 AUDIO
INDEX 01 00:00:00

FILE 35.WAV WAVE
TRACK 35 AUDIO
INDEX 01 00:00:00

FILE 36.WAV WAVE
TRACK 36 AUDIO
INDEX 01 00:00:00

FILE 37.WAV WAVE
TRACK 37 AUDIO
INDEX 01 00:00:00

FILE 38.WAV WAVE
TRACK 38 AUDIO
INDEX 01 00:00:00

FILE 39.WAV WAVE
TRACK 39 AUDIO
INDEX 01 00:00:00

FILE 40.WAV WAVE
TRACK 40 AUDIO
INDEX 01 00:00:00

FILE 41.WAV WAVE
TRACK 41 AUDIO
INDEX 01 00:00:00

FILE 42.WAV WAVE
TRACK 42 AUDIO
INDEX 01 00:00:00

FILE 43.WAV WAVE
TRACK 43 AUDIO
INDEX 01 00:00:00
User avatar
arion
Next-Gen
 
Posts: 1205
Joined: Sat May 06, 2006 7:08 pm
Location: Iceland

by arion Sat Jul 01, 2006 6:19 pm

the thing with nero is that it has to have the exact path for the files in the cue. Just add the path to the iso and the wav files. It might take some time to edit the cue but its worth it for die hard arcade :D
r2daizzzo
Newbie
 
Posts: 6
Joined: Wed Jun 28, 2006 10:32 pm

by r2daizzzo Sat Jul 01, 2006 7:28 pm

now ples tell me how or point me in the rite direction
User avatar
Pullmyfinger
Next-Gen
 
Posts: 1469
Joined: Sat Jan 28, 2006 12:49 pm
Location: Orange County

by Pullmyfinger Sat Jul 01, 2006 11:25 pm

get the cue maker
SFK
Newbie
 
Posts: 12
Joined: Fri Jun 16, 2006 3:00 am
Location: Dunedin, FL

by SFK Mon Jul 03, 2006 4:27 pm

Gah, I've been having this same problem with a few games as well. Yes, I know that Nero is is picky about the files locations. I've tried adding the path into the cue file. I've tried using sega cue maker. Nero just won't cooperate.

I can burn with Alcohol 120%, but the music tracks are messed up.

@r2daizzzo- You can try adding the full path in front of yhe files in the cue sheet. This has been discussed in this thread: http://www.racketboy.com/forum/viewtopic.php?t=488

I was having trouble with Guardian Heroes. No matter how many times I edited the cue sheet, or created a new cue sheet, I kept getting that error line 1 message. I never resolved the problem. Please let me know if you get the cue sheet to load correctly.
User avatar
arion
Next-Gen
 
Posts: 1205
Joined: Sat May 06, 2006 7:08 pm
Location: Iceland

by arion Mon Jul 03, 2006 6:24 pm

it could also be an issue with the name of the file..for instance i have had problems with files named
"track no15" or any number :P what i did was change it to "trackno15" so you could check if there are any spaces in the file names
Return to Technical Help

Who is online

Users browsing this forum: No registered users and 5 guests