Need help with your PC or Modding Projects?
carlosesca07
Newbie
 
Posts: 10
Joined: Fri Jun 30, 2006 2:17 pm

How to burn Nights, Last Bronx, etc.?

by carlosesca07 Fri Jun 30, 2006 2:23 pm

Hi guys, for quite some time i've had problems burning this games, i've ended up with an enourmous amount of coasters because of these games.

I know both games are "two-data track" games, but I jus't can't figure out what i'm doing wrong when burning them.

My burner is a Sony DVDR/RW 4X, CDR/RW 24x.

I have used both alcohol 120 and nero but with no success..thanks!
User avatar
Pullmyfinger
Next-Gen
 
Posts: 1469
Joined: Sat Jan 28, 2006 12:49 pm
Location: Orange County

by Pullmyfinger Fri Jun 30, 2006 3:43 pm

What type of image are you burning? What are your speed settings, Media you are trying to burn in, Did you patch your ISO?


I think I'm going to write a tutorial soon
carlosesca07
Newbie
 
Posts: 10
Joined: Fri Jun 30, 2006 2:17 pm

by carlosesca07 Fri Jun 30, 2006 4:16 pm

i'm with bin/cue, so you'd think you would'nt have a problem, but you do, also the .cue is like this
FILE "NIGHTS_INTO_DREAMS.BIN" BINARY
TRACK 01 MODE1/2352
INDEX 01 00:00:00
TRACK 02 MODE2/2352
PREGAP 00:02:00
INDEX 01 04:21:60
TRACK 03 AUDIO
PREGAP 00:02:00
INDEX 01 21:46:17
TRACK 04 AUDIO
INDEX 01 22:00:22
TRACK 05 AUDIO
INDEX 01 22:12:24
TRACK 06 AUDIO
INDEX 01 22:23:47
TRACK 07 AUDIO
INDEX 01 22:37:00
TRACK 08 AUDIO
INDEX 01 22:53:10
TRACK 09 AUDIO
INDEX 01 25:01:10
TRACK 10 AUDIO
INDEX 01 27:09:10
TRACK 11 AUDIO
INDEX 01 29:17:10
TRACK 12 AUDIO
INDEX 01 31:25:10
TRACK 13 AUDIO
INDEX 01 33:33:10
TRACK 14 AUDIO
INDEX 01 35:41:10
TRACK 15 AUDIO
INDEX 01 37:43:10
TRACK 16 AUDIO
INDEX 01 38:17:15
TRACK 17 AUDIO
INDEX 01 40:20:46
TRACK 18 AUDIO
INDEX 01 41:49:01
TRACK 19 AUDIO
INDEX 01 43:18:01
TRACK 20 AUDIO
INDEX 01 44:47:02
TRACK 21 AUDIO
INDEX 01 46:16:03

My .bin are USA so i don't need to region patch, speed setting is 4X, DAO, media is CDR (I've tried memorex, imation, tdk).

But it doesn't even begin burning, when I start burning it cancels the operation and tells me the process has "invalid parameters".
User avatar
Mozgus
Next-Gen
 
Posts: 6630
Joined: Sat May 13, 2006 10:31 pm

by Mozgus Fri Jun 30, 2006 4:22 pm

Have you tried a different burner? Seriously, no two burners are the same. Compact Disc Drives are the most stubborn things. They all have their own little issues with certain disc types. For example, when I replaced the music in Street Fighter 2 for Dreamcast recently, my good DVD burner failed everytime. I've replaced music in DC games before and never had an issue. But this one specific game refused to burn until I tranfered my work across the LAN to this old pentium 3 system, and tried burning on there. It worked.
carlosesca07
Newbie
 
Posts: 10
Joined: Fri Jun 30, 2006 2:17 pm

by carlosesca07 Fri Jun 30, 2006 4:33 pm

Yes i've thought of that actually !!

The problem is all the other comps in my house are Macs.....Which program do you reccommend using for macs?
User avatar
Mozgus
Next-Gen
 
Posts: 6630
Joined: Sat May 13, 2006 10:31 pm

by Mozgus Fri Jun 30, 2006 4:57 pm

carlosesca07 wrote:Yes i've thought of that actually !!

The problem is all the other comps in my house are Macs.....Which program do you reccommend using for macs?

I recommend not using Macs at all, lol.
User avatar
Pullmyfinger
Next-Gen
 
Posts: 1469
Joined: Sat Jan 28, 2006 12:49 pm
Location: Orange County

by Pullmyfinger Fri Jun 30, 2006 5:07 pm

The invalid parameter thing happened to me with Alcohol once, but burning wuth nero solved things
carlosesca07
Newbie
 
Posts: 10
Joined: Fri Jun 30, 2006 2:17 pm

by carlosesca07 Fri Jun 30, 2006 5:58 pm

which setting did you use?
User avatar
Pullmyfinger
Next-Gen
 
Posts: 1469
Joined: Sat Jan 28, 2006 12:49 pm
Location: Orange County

by Pullmyfinger Sat Jul 01, 2006 11:21 am

When burning an image the settings fill up automatically, I remade the cue file with the sega cue maker
carlosesca07
Newbie
 
Posts: 10
Joined: Fri Jun 30, 2006 2:17 pm

by carlosesca07 Sat Jul 01, 2006 12:48 pm

coul you post the .cue you used?
Return to Technical Help

Who is online

Users browsing this forum: No registered users and 4 guests