Page 1 of 1

Panzer dragoon?

Posted: Thu Aug 24, 2006 3:10 am
by Mike231
Can't burn the Iso. The file is too big 832mb? Is that normal? I thought most saturn games where small?

Posted: Fri Aug 25, 2006 6:59 pm
by Nos9
Hi,

Which version of Panzer Dragoon are you attempting to write to a disk ?
What format is the game image ?

To answer your question, 832MB does sound rather high for a saturn game image. Maybe the audio has been saved in a WAV format without compression, as that might explain the extra data, though thats just a guess.

Nos9

Posted: Fri Aug 25, 2006 9:23 pm
by lordofduct
Nos9 wrote:Hi,

Which version of Panzer Dragoon are you attempting to write to a disk ?
What format is the game image ?

To answer your question, 832MB does sound rather high for a saturn game image. Maybe the audio has been saved in a WAV format without compression, as that might explain the extra data, though thats just a guess.

Nos9

wav is raw audio data just like that of a regular music CD. Sorta similar actually... and take up roughly the same amount of space.

No, I spoke with him about his problem and the iso... or data track was 500+ MB when it should only be roughly 220MB. I asked him to mount it with a virtual drive (like Daemon tools) and see if the iso had the audio tracks inside of it as well... but alas he said no they weren't. So I suspect it is just a bad rip.

Posted: Fri Aug 25, 2006 9:44 pm
by scott21
I ripped PD from my cd and it came to be 646 megs. Bin/cue'd of course

Posted: Fri Aug 25, 2006 10:09 pm
by lordofduct
scott21 wrote:I ripped PD from my cd and it came to be 646 megs. Bin/cue'd of course


That is with audio included right?

Posted: Fri Aug 25, 2006 10:27 pm
by scott21
Yeah

FILE "PANZER_DRAGOON.BIN" BINARY
TRACK 01 MODE1/2352
INDEX 01 00:00:00
TRACK 02 AUDIO
PREGAP 00:02:00
INDEX 01 24:05:37
TRACK 03 AUDIO
INDEX 00 27:13:71
INDEX 01 27:15:69
TRACK 04 AUDIO
INDEX 00 30:39:12
INDEX 01 30:41:10
TRACK 05 AUDIO
INDEX 00 31:52:20
INDEX 01 31:54:18
TRACK 06 AUDIO
INDEX 00 35:54:22
INDEX 01 35:56:20
TRACK 07 AUDIO
INDEX 00 37:32:48
INDEX 01 37:34:46
TRACK 08 AUDIO
INDEX 00 41:25:51
INDEX 01 41:27:49
TRACK 09 AUDIO
INDEX 00 44:52:48
INDEX 01 44:54:46
TRACK 10 AUDIO
INDEX 00 46:07:67
INDEX 01 46:09:65
TRACK 11 AUDIO
INDEX 00 49:39:69
INDEX 01 49:41:67
TRACK 12 AUDIO
INDEX 00 50:42:58
INDEX 01 50:44:56
TRACK 13 AUDIO
INDEX 00 54:30:28
INDEX 01 54:32:26
TRACK 14 AUDIO
INDEX 00 54:59:30
INDEX 01 55:01:28
TRACK 15 AUDIO
INDEX 00 58:03:18
INDEX 01 58:05:16
TRACK 16 AUDIO
INDEX 00 60:49:61
INDEX 01 60:51:59

Posted: Sat Aug 26, 2006 5:15 am
by Mike231
Yeah it's a bad rip. I got part 2 but I really want part one. I'll find somewhere else to download part one from I guess