Page 2 of 3

Posted: Thu Nov 23, 2006 12:00 am
by chriswy27
thanks man

Posted: Thu Nov 23, 2006 12:04 am
by Zalphier
No problem, it's there in the downloads section for anyone else who needs it as well.

Posted: Thu Nov 23, 2006 12:41 am
by chriswy27
used your rom and upgraded to nero 7 and my problem was solved.

Posted: Thu Nov 23, 2006 12:53 am
by Mozgus
I should really try out the new Nero and see if it can truly do everything alcohol can do. I lack motivation though, since alcohol has never failed me. So that's my pickle.

Posted: Thu Nov 23, 2006 1:23 am
by Zalphier
Hey, don't mess with a good thing :) if Alcohol works for you(like it does for me, I prefer it over nero) then why go to nero?

Posted: Thu Nov 23, 2006 2:51 am
by Mozgus
Zalphier wrote:Hey, don't mess with a good thing :) if Alcohol works for you(like it does for me, I prefer it over nero) then why go to nero?

One less app to have installed. I only use alcohol for dreamcast burning. Nothing else.

I just don't like how Nero 6 to 7 went from 30MB to an entire CD-R's worth. I like to keep my apps in a folder for quick installation.

Posted: Thu Nov 23, 2006 3:11 am
by Cerulean
Dammit, will I ever be able to play Sonic CD? Do version 2 CDs not play Copies?

Heres this CUE sheet:

FILE "Sonic CD.iso" BINARY
TRACK 01 MODE1/2048
INDEX 01 00:00:00
POSTGAP 00:02:00
FILE "Sonic CD 02.mp3" MP3
TRACK 02 AUDIO
PREGAP 00:02:00
INDEX 01 00:00:00
FILE "Sonic CD 03.mp3" MP3
TRACK 03 AUDIO
INDEX 01 00:00:00
FILE "Sonic CD 04.mp3" MP3
TRACK 04 AUDIO
INDEX 01 00:00:00
FILE "Sonic CD 05.mp3" MP3
TRACK 05 AUDIO
INDEX 01 00:00:00
FILE "Sonic CD 06.mp3" MP3
TRACK 06 AUDIO
INDEX 01 00:00:00
FILE "Sonic CD 07.mp3" MP3
TRACK 07 AUDIO
INDEX 01 00:00:00
FILE "Sonic CD 08.mp3" MP3
TRACK 08 AUDIO
INDEX 01 00:00:00
FILE "Sonic CD 09.mp3" MP3
TRACK 09 AUDIO
INDEX 01 00:00:00
FILE "Sonic CD 10.mp3" MP3
TRACK 10 AUDIO
INDEX 01 00:00:00
FILE "Sonic CD 11.mp3" MP3
TRACK 11 AUDIO
INDEX 01 00:00:00
FILE "Sonic CD 12.mp3" MP3
TRACK 12 AUDIO
INDEX 01 00:00:00
FILE "Sonic CD 13.mp3" MP3
TRACK 13 AUDIO
INDEX 01 00:00:00
FILE "Sonic CD 14.mp3" MP3
TRACK 14 AUDIO
INDEX 01 00:00:00
FILE "Sonic CD 15.mp3" MP3
TRACK 15 AUDIO
INDEX 01 00:00:00
FILE "Sonic CD 16.mp3" MP3
TRACK 16 AUDIO
INDEX 01 00:00:00
FILE "Sonic CD 17.mp3" MP3
TRACK 17 AUDIO
INDEX 01 00:00:00
FILE "Sonic CD 18.mp3" MP3
TRACK 18 AUDIO
INDEX 01 00:00:00
FILE "Sonic CD 19.mp3" MP3
TRACK 19 AUDIO
INDEX 01 00:00:00
FILE "Sonic CD 20.mp3" MP3
TRACK 20 AUDIO
INDEX 01 00:00:00
FILE "Sonic CD 21.mp3" MP3
TRACK 21 AUDIO
INDEX 01 00:00:00
FILE "Sonic CD 22.mp3" MP3
TRACK 22 AUDIO
INDEX 01 00:00:00
FILE "Sonic CD 23.mp3" MP3
TRACK 23 AUDIO
INDEX 01 00:00:00
FILE "Sonic CD 24.mp3" MP3
TRACK 24 AUDIO
INDEX 01 00:00:00
FILE "Sonic CD 25.mp3" MP3
TRACK 25 AUDIO
INDEX 01 00:00:00
FILE "Sonic CD 26.mp3" MP3
TRACK 26 AUDIO
INDEX 01 00:00:00
FILE "Sonic CD 27.mp3" MP3
TRACK 27 AUDIO
INDEX 01 00:00:00
FILE "Sonic CD 28.mp3" MP3
TRACK 28 AUDIO
INDEX 01 00:00:00
FILE "Sonic CD 29.mp3" MP3
TRACK 29 AUDIO
INDEX 01 00:00:00
FILE "Sonic CD 30.mp3" MP3
TRACK 30 AUDIO
INDEX 01 00:00:00
FILE "Sonic CD 31.mp3" MP3
TRACK 31 AUDIO
INDEX 01 00:00:00
FILE "Sonic CD 32.mp3" MP3
TRACK 32 AUDIO
INDEX 01 00:00:00
FILE "Sonic CD 33.mp3" MP3
TRACK 33 AUDIO
INDEX 01 00:00:00
FILE "Sonic CD 34.mp3" MP3
TRACK 34 AUDIO
INDEX 01 00:00:00
FILE "Sonic CD 35.mp3" MP3
TRACK 35 AUDIO
INDEX 01 00:00:00

Posted: Thu Nov 23, 2006 3:09 pm
by Zalphier
Um...if you followed everything that was said in this guide, you should be able to burn it. If you're doing what your supposed to do, then it should burn. btw, all sega cd consoles play backups, piracy for cd games wasn't a problem then.

Posted: Thu Nov 23, 2006 7:24 pm
by Cerulean
It would only work when It was burned thru Nero. I guess A120 will only be used for DC games for me.

Anyways how would I go aboot burning the Euro version of EWJ?

Posted: Thu Nov 23, 2006 8:27 pm
by Zalphier
http://www.racketboy.com/retro/2005/02/ ... codes.html

It will burn like everything else, but in order to play on a sega cd, you'll need to change the region.